#TITLE:Feel Fine;
#SUBTITLE:;
#ARTIST:倉木麻衣;
#TITLETRANSLIT:Feel Fine;
#SUBTITLETRANSLIT:;
#ARTISTTRANSLIT:Mai Kuraki;
#CREDIT:;
#BANNER:Feel Fine-bn.png;
#BACKGROUND:Feel Fine-bg.png;
#LYRICSPATH:;
#CDTITLE:pm4cd.png;
#MUSIC:Feel Fine.mp3;
#OFFSET:0.080;
#SAMPLESTART:88.402;
#SAMPLELENGTH:20.000;
#SELECTABLE:YES;
#BPMS:0.000=151.970;
#STOPS:;
#BGCHANGES:7.750=Feel Fine - Mai Kuraki.avi=1.000=0=0=1,
726.250=Feel Fine-bg.png=1.000=0=0=1,
99999=-nosongbg-=1.000=0=0=0 // don't automatically add -songbackground-
;
// cache tags:
#FIRSTBEAT:34.250;
#LASTBEAT:726.250;
#SONGFILENAME:Songs/Music V.I.P ^_^/Feel Fine/Feel Fine.sm;
#HASMUSIC:1;
#HASBANNER:1;
#MUSICLENGTH:284.003;
// end cache tags

//---------------dance-single - ----------------
#NOTES:
     dance-single:
     :
     Hard:
     11:
     0.951,0.991,1.000,0.190,1.000,1218.000,601.000,54.000,0.000,114.000:
0000
0000
0000
0000
,
0000
0000
0000
0000
,
0000
0000
0000
0000
,
0000
0000
0000
0000
,
0000
0000
0000
0000
,
0000
0000
0000
0000
,
0000
0000
0000
0000
,
0000
0000
0000
0000
,
0000
0000
0000
0000
0000
0000
0000
0000
0000
1011
0000
0000
0000
1101
0000
0000
,
0000
0000
0000
0000
0000
0000
0000
0000
0000
0011
0000
0000
0000
1100
0000
0000
,
0000
0101
0000
0011
0000
1100
0000
0000
0000
0101
0000
0000
0000
0110
0000
0000
,
0000
1001
0000
1001
0000
0110
0000
0000
0000
1011
0000
0000
0000
1100
0000
0000
,
0000
0011
0000
0101
0000
1010
0000
0000
0000
2001
0000
0000
0000
0010
0000
0000
,
3000
0011
0000
0011
0000
1100
0000
0000
0000
0011
0000
0000
0000
1110
0000
0000
,
0000
0101
0000
1001
0000
0110
0000
0000
0000
0011
0000
0000
0000
0110
0000
0000
,
0000
1001
0000
0101
0000
0010
0000
0000
0000
0011
0000
0000
0000
0110
0000
0000
,
0000
0011
0000
0011
0000
0110
0000
0000
0000
2101
0000
0010
0000
0101
0000
0010
,
0000
0101
0000
0010
0000
0101
0000
0010
3000
0201
0000
0010
0000
0001
0000
0010
,
0000
1000
0000
0010
0000
0001
0000
0010
0300
2011
0000
0100
0000
0011
0000
0100
,
0000
0011
0000
0100
0000
0011
0000
0100
3000
1200
0000
0010
0000
1000
0000
0010
,
0000
0001
0000
0010
0000
1000
0000
0010
0300
2101
0000
0010
0000
0101
0000
0010
,
0000
0101
0000
0010
0000
0101
0000
0010
3000
0201
0000
0010
0000
0001
0000
0010
,
0000
0001
0000
0010
0000
0001
0000
0010
0300
2011
0000
0010
0000
0101
0000
0100
,
0000
0011
0000
0010
0000
0101
0000
0100
3000
0211
0000
1000
0000
0011
0000
1000
,
0000
1000
0000
0010
0001
0001
0001
0000
0300
1001
0000
0000
0000
0010
0000
0000
,
0000
1001
0000
1001
0000
1100
0000
0010
0000
0101
0000
0000
0000
0100
0000
0000
,
0000
1001
0000
1001
0000
1010
0000
0100
0000
0011
0000
0000
0000
0010
0000
0000
,
0000
0101
0000
0101
0000
1100
0000
0010
0000
0011
0000
0000
0000
1000
0000
0000
,
0000
0101
0000
0101
0000
0110
0000
1000
0000
1001
0000
0000
0000
1000
0000
0000
,
0000
0011
0000
0011
0000
0110
0000
1000
0000
0101
0000
0000
0000
1000
0000
0000
,
0000
0011
0000
0011
0000
1010
0000
0100
0000
1001
0000
0000
0000
0010
0000
0000
,
0000
1001
0000
1001
0000
1010
0000
0100
0000
0011
0000
0000
0000
0100
0000
0000
,
0000
1001
0000
1001
0000
1100
0000
0010
0000
0021
0000
0000
0000
0201
0000
0030
,
0000
2001
0000
0301
0000
0010
0000
3000
0000
0011
0000
0000
0000
0010
0000
0000
,
0000
1001
0000
1001
0000
1010
0000
0100
0000
1001
0100
0000
0000
1001
0100
0000
,
0000
1001
0100
0000
0000
1001
0100
0000
0000
0011
0100
0000
0000
0011
0100
0000
,
0000
0011
0100
0000
0000
0011
0100
0000
0000
2001
0000
0000
0000
0001
0000
0000
,
0000
3001
0000
0001
0000
0010
0000
0100
0000
0201
0000
0000
0000
0001
0000
0000
,
0000
0301
0000
0001
0000
0010
0000
0100
0000
0021
0000
0000
0000
0001
0000
0000
,
0000
0031
0000
0001
0000
0010
0000
0100
0000
1001
0000
0000
0000
1001
0000
0000
,
0000
1001
0000
1001
0000
0110
0000
0010
0000
2001
0000
0000
0000
0001
0000
0000
,
0000
3001
0000
0001
0000
0100
0000
0010
0000
0201
0000
0000
0000
0001
0000
0000
,
0000
0301
0000
0001
0000
0100
0000
0010
0000
0021
0000
0000
0000
0001
0000
0000
,
0000
0031
0000
0001
0000
0100
0000
0010
0000
1001
0000
0000
0000
1001
0000
0000
,
0000
1001
0000
1001
0000
0110
0000
0010
0000
0001
0000
0100
0000
0001
0000
0000
,
0000
0001
0000
0001
0000
0010
0000
1000
0000
0001
0000
0000
0000
0001
0000
0000
,
0000
0001
0000
0001
0000
1000
0000
0010
0000
0102
0000
0000
0000
0100
0000
0000
,
0000
0103
0000
0010
0000
1000
0000
0010
0000
0101
0000
0000
0000
1001
0000
0000
,
0000
0101
0000
1001
0000
0010
0100
1000
0000
0001
0000
0010
0000
0001
0000
0100
,
0000
0001
0000
1000
0000
0001
0000
0010
0000
0001
0000
0100
0000
0001
0000
1000
,
0000
0001
0000
0010
0000
0001
0000
0100
0000
1000
0000
0001
0000
1000
0000
0010
,
0000
1000
0000
0100
0000
1000
0000
0001
0000
1000
0000
0010
0000
1000
0000
0100
,
0000
1000
0000
0001
0000
1000
0000
0010
0000
2001
0000
0000
0000
0001
0000
0000
,
0000
0001
0000
0000
0000
0001
0000
0000
3000
0201
0000
0000
0000
0001
0000
0000
,
0000
0001
0000
0000
0000
0001
0000
0000
0300
0021
0000
0000
0000
0001
0000
0000
,
0000
0001
0000
0000
0000
0001
0000
0000
0030
0001
0000
0010
0000
0010
0000
0100
,
0000
0001
0000
0001
0000
0010
0100
1000
0000
0011
0000
1000
0000
0011
0100
0000
,
0000
0001
0000
0101
0000
1001
0000
0010
0000
0011
0000
0010
0000
0101
1000
0000
,
0000
0001
0000
0101
0000
0011
0000
0100
0000
0101
0000
1000
0000
0011
1000
0000
,
0000
0001
0000
0011
0000
0101
0000
0010
0000
1001
0000
0010
0000
0101
0010
0000
,
0000
0001
0000
0101
0000
0011
0000
1000
0000
0101
0000
0100
0000
0011
1000
0000
,
0000
0001
0000
0101
0000
1001
0000
0010
0000
1001
0000
0100
0000
0011
0100
0000
,
0000
0001
0000
1001
0000
0011
0000
0100
0000
0011
0000
0010
0000
1001
0100
0000
,
0000
0001
0000
0101
0000
0001
0000
0010
0000
1001
0000
0000
0000
0100
0000
0010
,
0000
0001
0010
0001
0010
0001
0010
0100
0000
0011
0000
0100
0000
0011
1000
0000
,
0000
0001
0000
0011
0000
1001
0000
0010
0000
0101
0000
0010
0000
0101
1000
0000
,
0000
0001
0000
0011
0000
0101
0000
0010
0000
1001
0000
0100
0000
1001
0010
0000
,
0000
0001
0000
0101
0000
0011
0000
1000
0000
0101
0000
0010
0000
1001
0010
0000
,
0000
0001
0000
1001
0000
0011
0000
0100
0000
0011
0000
1000
0000
0011
1000
0000
,
0000
0001
0000
0011
0000
0101
0000
1000
0000
0101
0000
0100
0000
1001
0100
0000
,
0000
0001
0000
0011
0000
0101
0000
0010
0000
1001
0000
0010
0000
0101
0010
0000
,
0000
0000
0001
0000
0000
0000
1001
0000
0000
0000
0011
0000
0000
0000
0100
0000
0000
0000
0001
0010
0001
0010
0001
0010
0000
0000
1001
0000
0000
0000
0000
0000
,
0000
0000
0000
0000
0000
0101
0000
0000
0000
2110
0000
0001
0000
0110
0000
0001
,
0000
0110
0000
0001
0000
0110
0000
0001
3000
1120
0000
0001
0000
1100
0000
0001
,
0000
1100
0000
0001
0000
1100
0000
0031
0000
0211
0000
1000
0000
0011
0000
1000
,
0000
0011
0000
1000
0000
0011
0000
1000
0300
1102
0000
0010
0000
1100
0000
0010
,
0000
1100
0000
0010
0010
0010
0100
0100
0003
1110
0000
0000
0000
0001
0000
0000
,
0000
1010
0000
1010
0000
0101
0000
0010
0000
1100
0000
0000
0000
0010
0000
0000
,
0000
0110
0000
0110
0000
1100
0000
0010
0000
0101
0000
0000
0000
1000
0000
0000
,
0000
0011
0000
0011
0000
0110
0000
1000
0000
1001
0000
0000
0000
0010
0000
0000
,
0000
0011
0000
0011
0000
1010
0000
0100
0000
1001
0000
0000
0000
0010
0000
0000
,
0000
1100
0000
1100
0000
0101
0000
0010
0000
1001
0000
0000
0000
0010
0000
0000
,
0000
1001
0000
1001
0000
0110
0000
0010
0000
1100
0000
0000
0000
0001
0000
0000
,
0000
1010
0000
1010
0000
0101
0000
0010
0000
0110
0000
0000
0000
1000
0000
0000
,
0000
0101
0000
0101
0000
1001
0000
0100
0000
1020
0000
0000
0000
0102
0000
0030
,
0000
0210
0000
0013
0000
1000
0000
0301
0000
0110
0000
0000
0000
1000
0000
0000
,
0000
0101
0000
0101
0000
1100
0000
0010
0000
1002
0000
0000
0000
0010
0000
0000
,
0000
1003
0000
1000
0000
0100
0000
0010
0000
1100
0000
0000
0000
0101
0000
0000
,
0000
1010
0000
0101
0000
1000
0100
0010
0000
1001
0000
0010
0000
1010
0000
0010
,
0000
1100
0000
0010
0000
0101
0000
0010
0000
0110
0000
1000
0000
0101
0000
0010
,
0000
1001
0000
0100
0000
0101
0000
0100
0000
0011
0000
0100
0000
1001
0000
0010
,
0000
1100
0000
0001
0000
0110
0000
0001
0000
1010
0000
0010
0000
0101
0000
0001
,
0000
0110
0000
0001
0000
1010
0000
0100
0000
1002
0000
0000
0000
1000
0000
0000
,
0000
1000
0000
0000
0000
1000
0000
0003
0000
1020
0000
0000
0000
1000
0000
0000
,
0000
1000
0000
0000
0000
1000
0000
0000
0030
1200
0000
0000
0000
1000
0000
0000
,
0000
1000
0000
0000
0000
1000
0000
0000
0300
1000
0000
0100
0000
1000
0000
1000
,
0000
0010
0000
0010
0000
0100
0010
0001
0000
1100
0000
0001
0000
1100
0010
0000
,
0000
1000
0000
1010
0000
1001
0000
0100
0000
1100
0000
0100
0000
1010
0001
0000
,
0000
1000
0000
1010
0000
1100
0000
0010
0000
1010
0000
0001
0000
1100
0001
0000
,
0000
1000
0000
1100
0000
1010
0000
0100
0000
1001
0000
0100
0000
1010
0100
0000
,
0000
1000
0000
1010
0000
1100
0000
0001
0000
1010
0000
0010
0000
1100
0001
0000
,
0000
1000
0000
1010
0000
1001
0000
0100
0000
1001
0000
0010
0000
1100
0001
0000
,
0000
1000
0000
1001
0000
1100
0000
0010
0000
1100
0000
0100
0000
1001
0010
0000
,
0000
1000
0000
1010
0000
1000
0000
0100
0000
0110
0000
0000
0000
0001
0000
1000
,
0000
1000
0100
1000
0100
1000
0100
0010
0000
1100
0000
0010
0000
1100
0001
0000
,
0000
1000
0000
1100
0000
1001
0000
0100
0000
1010
0000
0100
0000
1010
0001
0000
,
0000
1000
0000
1100
0000
1010
0000
0100
0000
1001
0000
0010
0000
1001
0100
0000
,
0000
1000
0000
1010
0000
1100
0000
0001
0000
1010
0000
0100
0000
1001
0100
0000
,
0000
1000
0000
1001
0000
1100
0000
0010
0000
1100
0000
0001
0000
1100
0001
0000
,
0000
1000
0000
1100
0000
1010
0000
0001
0000
1010
0000
0010
0000
1001
0010
0000
,
0000
1000
0000
1100
0000
1010
0000
0100
0000
1001
0000
0100
0000
1010
0100
0000
,
0000
0000
1000
0000
0000
0000
1001
0000
0000
0000
1100
0000
0000
0000
0010
0000
0000
0000
0100
0010
0100
0010
0100
0010
0000
0000
1001
0000
0000
0000
0010
0000
,
0000
0100
0000
1000
0000
0010
0100
1000
0000
2100
0000
0001
0000
0011
0000
0100
,
0000
0110
0000
0101
0000
0110
0000
0001
3000
0210
0000
0001
0000
1010
0000
1000
,
0000
0011
0000
1001
0000
0011
0000
1000
0300
0021
0000
1000
0000
1100
0000
0001
,
0000
1100
0000
1001
0000
1100
0000
0001
0030
0102
0000
0010
0000
0110
0000
1000
,
0000
1100
0000
1010
0000
1100
0000
1000
0003
0120
0000
1000
0000
0101
0000
0001
,
0000
1100
0000
0101
0000
1100
0000
0001
0030
1200
0000
0001
0000
1010
0000
0010
,
0000
1001
0000
1010
0000
1001
0000
0010
0300
2010
0000
0001
0000
0011
0000
0100
,
0000
0110
0000
0011
0000
0110
0000
0001
3000
0201
1000
0010
0001
0010
1000
0010
,
0001
0010
0001
0010
1000
0010
0001
0010
0301
1020
0000
0100
0000
1001
0000
0001
,
0000
1100
0000
1001
0000
1100
0000
0100
0030
1002
0000
0010
0000
0110
0000
1000
,
0000
0110
0000
1010
0000
0110
0000
1000
0003
0021
0000
1000
0000
1001
0000
0100
,
0000
0101
0000
1001
0000
0101
0000
1000
0030
0201
0000
0001
0000
1010
0000
0010
,
0000
1001
0000
0011
0000
1001
0000
0010
0300
2100
0000
0001
0000
0011
0000
0100
,
0000
0110
0000
0011
0000
0110
0000
0010
3000
0201
0000
0010
0000
1010
0000
1000
,
0000
0011
0000
1010
0000
0011
0000
1000
0300
1020
0000
0100
0000
1100
0000
0001
,
0000
1001
0000
0101
0000
1001
0000
0100
0030
0012
0000
0100
0000
1010
0000
0100
,
0000
1100
0000
0110
0000
1100
0000
0010
0003
1020
0000
0100
0000
1001
0000
0100
,
0000
0101
0000
1100
0000
0101
0000
1100
0030
0000
0000
0101
0000
0101
0000
0000
,
0000
1000
0000
0100
0000
0010
0000
1001
0000
1110
0000
0000
0000
0010
0000
0000
,
0000
0001
0000
0010
0000
0100
0000
1000
0000
0000
0000
0010
0000
0100
0000
0000
,
0000
0000
0000
0100
0000
0010
0000
0001
0000
0010
0000
0100
0000
1000
0000
0100
,
0000
0010
0000
0100
0000
0010
0000
0002
0000
0000
0000
0000
0000
0000
0000
0003
,
0000
0001
0000
0010
0000
0100
0000
1010
0000
1010
0000
0000
0000
0010
0000
0000
,
0000
0000
0000
0001
0000
0010
0000
0100
0000
1000
0000
0010
0000
0001
0000
0000
,
0000
0000
0000
0100
0000
0100
0000
0020
0000
0000
0000
0000
0000
0000
0000
0000
,
0000
0000
0000
0000
0000
0000
0000
0031
0000
1100
0011
1100
0011
1100
0000
0010
,
0100
0010
0100
0010
0100
0010
0001
0010
0100
1010
0000
0001
0000
0011
0100
0000
,
0000
0011
0000
1010
0000
0110
0000
1010
0000
0011
0000
1001
0000
0110
1000
0000
,
0000
0110
0000
0101
0000
1100
0000
0110
0000
0101
0000
1001
0000
0011
0100
0000
,
0000
1010
0000
0110
0000
1010
0000
0101
0000
1100
0000
0110
0000
0011
1000
0000
,
0000
1100
0000
0101
0000
0110
0000
1001
0000
1100
0000
0110
0000
0101
0010
0000
,
0000
0110
0000
1010
0000
0011
0000
1001
0000
0110
0000
0011
0000
0101
1000
0000
,
0000
1100
0000
0101
0000
1100
0000
0011
0000
1010
0000
0110
0000
0011
0100
0000
,
0000
0110
0000
0101
0000
1100
0000
0011
0000
0110
0000
0000
0000
1100
0000
0001
,
0000
0010
1000
0010
1000
0010
0001
0010
0000
1010
0000
0001
0000
1010
0100
0000
,
0000
0011
0000
0110
0000
0101
0000
0110
0000
0011
0000
1010
0000
1100
0010
0000
,
0000
0110
0000
1100
0000
0101
0000
0110
0000
1010
0000
0101
0000
1100
0001
0000
,
0000
0110
0000
0011
0000
1010
0000
0101
0000
0110
0000
1001
0000
0011
0100
0000
,
0000
0101
0000
1100
0000
0101
0000
0011
0000
0110
0000
1100
0000
0101
1000
0000
,
0000
0011
0000
1010
0000
0110
0000
1001
0000
1100
0000
0110
0000
0011
1000
0000
,
0000
0101
0000
1100
0000
0110
0000
0101
0000
1001
0000
1100
0000
0110
0001
0000
,
0000
0110
0000
1010
0000
0101
0000
0110
0000
1100
0000
0011
0000
0101
1000
0000
,
0000
0110
0000
0101
0000
1100
0000
1001
0000
0110
0000
1010
0000
1001
0100
0000
,
0000
0000
0110
0000
0000
0000
0011
0000
0000
0000
1010
0000
0000
0000
0101
0000
0000
0000
1000
0100
1000
0100
1000
0100
0000
0000
1001
0000
0000
0000
0000
0000
,
0000
0000
0000
0000
0000
0101
0000
0000
0000
1010
0000
0000
0000
0011
0000
0000
,
0000
0101
0000
0011
0000
1001
0000
0000
0000
0011
0000
0000
0000
0101
0000
0000
,
0000
1001
0000
0101
0000
0011
0000
0000
0000
0011
0000
0000
0000
1001
0000
0000
,
0000
0011
0000
1001
0000
0101
0000
0000
0000
0101
0000
0000
0000
0011
0000
0000
,
0000
1001
0000
0101
0000
0011
0000
0000
0000
0011
0000
0000
0000
0101
0000
0000
,
0000
0101
0000
0011
0000
1001
0000
0000
0000
0011
0000
0000
0000
1001
0000
0000
,
0000
0101
0000
0011
0000
1001
0000
0000
0000
0101
0000
0000
0000
0011
0000
0000
,
0000
0101
0000
1001
0000
0011
0000
0000
0000
0011
0000
0100
0000
0011
0000
0011
,
0000
1000
0001
1000
0001
1000
0001
0100
0000
0011
0000
0000
0000
0101
0000
0000
,
0000
0101
0000
0011
0000
1001
0000
0000
0000
0101
0000
0000
0000
0011
0000
0000
,
0000
1001
0000
0101
0000
0011
0000
0000
0000
0011
0000
0000
0000
0101
0000
0000
,
0000
0011
0000
1001
0000
0101
0000
0000
0000
1001
0000
0000
0000
0011
0000
0000
,
0000
0101
0000
0011
0000
1001
0000
0000
0000
0011
0000
0000
0000
0101
0000
0000
,
0000
0011
0000
0101
0000
0011
0000
0000
0000
1001
0000
0000
0000
0011
0000
0000
,
0000
0101
0000
0101
0000
1001
0000
0000
0000
0011
0000
0000
0000
0101
0000
0000
,
0000
0011
0000
0101
0000
1001
0000
0000
0000
1221
0000
1000
0000
0001
0000
1000
,
0000
0000
0000
0000
0330
0001
1000
0001
1000
0001
0000
0000
0000
0001
0000
0000
,
0000
0000
0000
0001
0000
1000
0000
1000
0000
0000
0000
0000
0000
0100
0000
0100
,
0000
0100
0000
0000
0000
0001
0000
0001
0000
0001
0000
0000
0000
1000
0000
0000
,
0000
0010
0000
1000
0000
0100
0000
0100
0000
0100
0000
0100
0000
0010
0000
1000
,
0000
1000
0000
0000
0000
0001
0000
0001
0000
0001
0000
0000
0000
0010
0000
0000
,
0000
0010
0000
0010
0000
0010
0000
0010
0000
1000
0000
0000
0000
0100
0000
0100
,
0000
0100
0000
0100
0000
0000
0000
0001
0000
0001
0000
0001
0000
0010
0000
0000
,
0000
1000
0000
0100
0000
0100
0000
0100
0000
1000
0000
0000
0000
0010
0000
0010
,
0000
0010
0000
0000
0000
0001
0000
0001
0000
0001
0000
0000
0000
0100
0000
0000
,
0000
0001
0000
0001
0000
0001
0000
0000
0000
1000
0000
0000
0000
0000
0000
0000
;
